<?xml version="1.0" standalone="no"?>
<!DOCTYPE svg PUBLIC "-//W3C//DTD SVG 1.1//EN" "http://www.w3.org/Graphics/SVG/1.1/DTD/svg11.dtd" >
<svg xmlns="http://www.w3.org/2000/svg" xmlns:xlink="http://www.w3.org/1999/xlink" version="1.1">
<metadata></metadata>
<defs>
<font id="source_sans_prosemibold" horiz-adv-x="513" >
<font-face units-per-em="1000" ascent="750" descent="-250" />
<missing-glyph horiz-adv-x="200" />
<glyph horiz-adv-x="0" />
<glyph horiz-adv-x="333" />
<glyph unicode=" "  horiz-adv-x="200" />
<glyph unicode="&#x09;" horiz-adv-x="200" />
<glyph unicode="&#xa0;" horiz-adv-x="200" />
<glyph unicode="!" horiz-adv-x="315" d="M83 66q0 34 22 56t53 22q32 0 53 -22t21 -56t-21 -56t-53 -22q-31 0 -53 22t-22 56zM100 670h116l-4 -114l-16 -341h-77l-16 341z" />
<glyph unicode="&#x22;" horiz-adv-x="482" d="M78 688h118l-3 -113l-23 -183h-66l-22 183zM285 688h118l-3 -113l-23 -183h-66l-22 183z" />
<glyph unicode="#" d="M35 195v76h85l16 129h-81v76h91l22 174h69l-21 -174h117l23 174h68l-21 -174h80v-76h-89l-16 -129h85v-76h-94l-23 -195h-70l23 195h-117l-24 -195h-70l24 195h-77zM190 271h118l16 129h-118z" />
<glyph unicode="$" d="M45 66l52 78q35 -28 71.5 -45t76.5 -17q49 0 73 23t24 63q0 33 -19.5 55.5t-50.5 39.5t-66 34.5t-66 39.5t-50.5 53.5t-19.5 78.5q0 70 40.5 116.5t107.5 58.5v102h80v-100q48 -6 82.5 -27.5t62.5 -50.5l-59 -67q-28 26 -54 39.5t-62 13.5q-40 0 -63.5 -20.5t-23.5 -59.5 q0 -30 19.5 -50t50.5 -36t66 -32.5t66 -39t50.5 -56t19.5 -84.5q0 -71 -40.5 -120t-114.5 -63v-103h-80v100q-46 5 -92.5 25t-80.5 51z" />
<glyph unicode="%" horiz-adv-x="841" d="M30 460q0 98 43.5 152t112.5 54t112.5 -54t43.5 -152q0 -99 -43.5 -153.5t-112.5 -54.5t-112.5 54.5t-43.5 153.5zM113 460q0 -73 21 -107t52 -34q32 0 52.5 34t20.5 107q0 74 -20.5 106.5t-52.5 32.5q-31 0 -52 -32.5t-21 -106.5zM207 -12l357 678h70l-356 -678h-71z M499 196q0 98 43.5 152t112.5 54t112.5 -54t43.5 -152q0 -99 -43.5 -153.5t-112.5 -54.5t-112.5 54.5t-43.5 153.5zM582 196q0 -73 21 -107t52 -34q32 0 52.5 34t20.5 107q0 74 -20.5 106.5t-52.5 32.5q-31 0 -52 -32.5t-21 -106.5z" />
<glyph unicode="&#x26;" horiz-adv-x="639" d="M28 172q0 45 17.5 79t46 60t61.5 48q-20 38 -31 74t-11 70q0 45 20.5 82t57.5 59t87 22q67 0 105.5 -38.5t38.5 -100.5q0 -43 -20.5 -76.5t-53 -61t-68.5 -52.5q30 -40 68.5 -79t80.5 -71q27 36 48.5 79.5t34.5 94.5h106q-18 -61 -46 -118.5t-66 -108.5q32 -19 62 -33 t56 -19l-29 -94q-37 9 -77.5 26.5t-81.5 43.5q-39 -32 -88 -51t-109 -19q-65 0 -112 24.5t-72 66t-25 93.5zM138 179q0 -46 32 -74t81 -28q27 0 53.5 10.5t51.5 28.5q-43 37 -83 79t-72 86q-28 -22 -45.5 -47t-17.5 -55zM207 504q0 -22 7 -46t19 -50q41 26 69 53t28 65 q0 26 -12 44t-41 18q-31 0 -50.5 -23t-19.5 -61z" />
<glyph unicode="'" horiz-adv-x="275" d="M78 688h118l-3 -113l-23 -183h-66l-22 183z" />
<glyph unicode="(" horiz-adv-x="324" d="M77 278q0 132 35 243t97 213l72 -32q-56 -96 -83 -205t-27 -219t27 -219t83 -205l-72 -32q-62 102 -97 213t-35 243z" />
<glyph unicode=")" horiz-adv-x="324" d="M43 -146q56 96 83 205t27 219t-27 219t-83 205l72 32q62 -102 97 -213t35 -243t-35 -243t-97 -213z" />
<glyph unicode="*" horiz-adv-x="438" d="M48 564l19 60l109 -25l11 113h63l11 -113l110 25l19 -60l-103 -45l58 -98l-51 -37l-75 87l-76 -87l-51 37l58 98z" />
<glyph unicode="+" d="M34 288v84h179v189h87v-189h179v-84h-179v-189h-87v189h-179z" />
<glyph unicode="," horiz-adv-x="275" d="M47 -119q49 19 75.5 51.5t25.5 69.5h-4.5h-4.5q-29 0 -51.5 18.5t-22.5 52.5q0 32 23 51.5t54 19.5q41 0 63.5 -31t22.5 -87q0 -73 -41 -127.5t-115 -80.5z" />
<glyph unicode="-" horiz-adv-x="322" d="M42 210v84h238v-84h-238z" />
<glyph unicode="&#xad;" horiz-adv-x="322" d="M42 210v84h238v-84h-238z" />
<glyph unicode="." horiz-adv-x="275" d="M63 66q0 34 22 56t53 22q32 0 53 -22t21 -56t-21 -56t-53 -22q-31 0 -53 22t-22 56z" />
<glyph unicode="/" horiz-adv-x="344" d="M12 -160l233 870h78l-233 -870h-78z" />
<glyph unicode="0" d="M40 321q0 161 58.5 244t157.5 83t157.5 -83t58.5 -244t-58.5 -247t-157.5 -86t-157.5 86t-58.5 247zM150 321q0 -90 14 -143t38 -76.5t54 -23.5q31 0 55 23.5t37.5 76.5t13.5 143t-13.5 142t-37.5 73.5t-55 21.5q-30 0 -54 -21.5t-38 -73.5t-14 -142z" />
<glyph unicode="1" d="M74 0v94h142v418h-117v72q47 9 82 21.5t65 30.5h86v-542h125v-94h-383z" />
<glyph unicode="2" d="M33 550q44 47 91 72.5t112 25.5q92 0 146.5 -53t54.5 -142q0 -56 -31.5 -114.5t-84 -119.5t-115.5 -128q25 2 54 4.5t52 2.5h156v-98h-430v67q89 86 153.5 153.5t99.5 123t35 103.5q0 50 -27 80t-78 30q-37 0 -67.5 -21t-56.5 -50z" />
<glyph unicode="3" d="M24 78l55 74q29 -29 66 -49.5t85 -20.5q52 0 84.5 25.5t32.5 70.5q0 33 -16.5 57.5t-57 37.5t-113.5 13v84q94 0 130 29t36 73q0 40 -25 62.5t-69 22.5q-37 0 -68 -16.5t-60 -43.5l-59 71q41 36 87.5 58t103.5 22q92 0 149 -43.5t57 -124.5q0 -53 -29.5 -89.5 t-81.5 -56.5v-4q56 -15 94 -55t38 -103q0 -58 -30.5 -99t-81 -63t-111.5 -22q-77 0 -129.5 26.5t-86.5 63.5z" />
<glyph unicode="4" d="M18 164v78l252 394h137v-383h80v-89h-80v-164h-108v164h-281zM132 253h167v144q0 28 2 66t3 66h-4q-12 -25 -25 -49t-27 -50z" />
<glyph unicode="5" d="M24 76l53 74q29 -27 65 -47.5t84 -20.5q53 0 88 32t35 90q0 57 -32 88t-85 31q-31 0 -52 -8.5t-50 -27.5l-55 35l19 314h340v-97h-240l-13 -154q20 10 39.5 15.5t44.5 5.5q55 0 100 -21t72.5 -65t27.5 -113t-31.5 -118t-82.5 -75t-110 -26q-77 0 -129.5 26.5t-87.5 61.5z " />
<glyph unicode="6" d="M44 299q0 124 35.5 200.5t92.5 112.5t122 36q58 0 100 -21t70 -51l-62 -70q-17 21 -44.5 34.5t-56.5 13.5q-40 0 -73 -22t-53.5 -73.5t-23.5 -139.5q28 35 66 55t72 20q83 0 134.5 -48.5t51.5 -148.5q0 -63 -27.5 -110t-72.5 -73t-100 -26q-62 0 -115 33t-84.5 102 t-31.5 176zM154 237q9 -85 41 -123t78 -38q40 0 67.5 31.5t27.5 89.5q0 56 -26.5 84.5t-73.5 28.5q-27 0 -57 -16.5t-57 -56.5z" />
<glyph unicode="7" d="M44 539v97h427v-70q-56 -69 -90.5 -132t-54 -127.5t-28.5 -139t-13 -167.5h-117q6 113 24 202.5t55 170.5t98 166h-301z" />
<glyph unicode="8" d="M41 163q0 59 35 99t80 64v4q-37 26 -62.5 62.5t-25.5 86.5q0 52 25 89.5t68.5 58.5t98.5 21q86 0 136.5 -47.5t50.5 -124.5q0 -47 -27 -85t-58 -61v-4q44 -25 77 -63t33 -102q0 -49 -27 -88t-75 -62t-113 -23q-62 0 -111 22.5t-77 61.5t-28 91zM142 175q0 -47 34 -76 t83 -29q46 0 75.5 25.5t29.5 69.5q0 35 -20.5 57t-55 38.5t-77.5 33.5q-30 -22 -49.5 -52t-19.5 -67zM171 479q0 -32 17 -53.5t46.5 -37t64.5 -29.5q26 26 39.5 53t13.5 57q0 42 -25 69.5t-69 27.5q-37 0 -62 -23t-25 -64z" />
<glyph unicode="9" d="M37 440q0 64 27.5 110.5t73 72t99.5 25.5q62 0 114.5 -33t84 -101.5t31.5 -175.5q0 -123 -35 -200.5t-92 -113.5t-123 -36q-57 0 -99 21t-71 51l62 70q18 -21 45.5 -34.5t56.5 -13.5q40 0 73 22t54 73.5t23 139.5q-28 -34 -66 -54t-73 -20q-82 0 -133.5 48.5t-51.5 148.5 zM143 440q0 -56 26.5 -85t74.5 -29q28 0 58.5 17.5t55.5 56.5q-9 84 -41 122t-79 38q-39 0 -67 -31t-28 -89z" />
<glyph unicode=":" horiz-adv-x="275" d="M63 66q0 34 22 56t53 22q32 0 53 -22t21 -56t-21 -56t-53 -22q-31 0 -53 22t-22 56zM63 408q0 34 22 56t53 22q32 0 53 -22t21 -56t-21 -56t-53 -22q-31 0 -53 22t-22 56z" />
<glyph unicode=";" horiz-adv-x="275" d="M47 -119q49 19 75.5 51.5t25.5 69.5h-4.5h-4.5q-29 0 -51.5 18.5t-22.5 52.5q0 32 23 51.5t54 19.5q41 0 63.5 -31t22.5 -87q0 -73 -41 -127.5t-115 -80.5zM63 408q0 34 22 56t53 22q32 0 53 -22t21 -56t-21 -56t-53 -22q-31 0 -53 22t-22 56z" />
<glyph unicode="&#x3c;" d="M34 290v84l445 173v-97l-193 -68l-135 -48v-4l135 -48l193 -68v-97z" />
<glyph unicode="=" d="M34 176v84h445v-84h-445zM34 400v84h445v-84h-445z" />
<glyph unicode="&#x3e;" d="M34 117v97l193 68l135 48v4l-135 48l-193 68v97l445 -173v-84z" />
<glyph unicode="?" horiz-adv-x="444" d="M40 595q33 38 79 62.5t102 24.5q78 0 128.5 -42t50.5 -124q0 -38 -15.5 -68t-38 -56t-44.5 -52t-35 -56t-9 -69h-101q-6 44 5 78t31.5 62t42.5 53t37 49t15 51q0 36 -21.5 58t-59.5 22q-31 0 -56 -14t-47 -38zM134 66q0 34 21.5 56t52.5 22q32 0 53.5 -22t21.5 -56 t-21.5 -56t-53.5 -22q-31 0 -52.5 22t-21.5 56z" />
<glyph unicode="@" horiz-adv-x="875" d="M50 204q0 103 34.5 186.5t94.5 143.5t138.5 92t166.5 32q105 0 181.5 -43.5t118.5 -121t42 -179.5q0 -67 -19.5 -117.5t-51 -84.5t-69 -51t-74.5 -17q-43 0 -73 19.5t-37 56.5h-2q-22 -30 -55.5 -49t-65.5 -19q-55 0 -90.5 39t-35.5 107q0 43 14.5 85t40.5 77t62.5 56 t79.5 21q52 0 78 -49h2l13 41h73l-43 -211q-25 -101 50 -101q31 0 60 23.5t48 66.5t19 103q0 76 -29.5 138.5t-90 100t-155.5 37.5q-66 0 -127.5 -26.5t-110.5 -76.5t-78 -119.5t-29 -155.5q0 -98 40 -165t107 -100.5t148 -33.5q42 0 83 11.5t74 29.5l27 -64 q-88 -50 -193 -50q-74 0 -140 23t-117 69.5t-80 115.5t-29 160zM342 205q0 -40 16.5 -59t44.5 -19q18 0 37.5 12t41.5 40l26 147q-22 35 -55 35q-34 0 -59 -25t-38.5 -61t-13.5 -70z" />
<glyph unicode="A" horiz-adv-x="558" d="M-2 0l213 654h136l213 -654h-122l-51 177h-220l-51 -177h-118zM194 268h167l-23 80q-16 52 -30.5 107t-28.5 109h-4q-13 -55 -27.5 -109.5t-30.5 -106.5z" />
<glyph unicode="B" horiz-adv-x="597" d="M83 0v654h209q68 0 120.5 -15t83 -50.5t30.5 -95.5q0 -46 -24 -86.5t-67 -55.5v-4q54 -12 89.5 -50.5t35.5 -104.5q0 -65 -32.5 -108t-89.5 -63.5t-129 -20.5h-226zM199 90h98q72 0 111 26.5t39 81.5q0 52 -38 75.5t-112 23.5h-98v-207zM199 384h83q68 0 99 25t31 67 q0 48 -32 68t-96 20h-85v-180z" />
<glyph unicode="C" horiz-adv-x="576" d="M49 325q0 107 40.5 183.5t108.5 117t150 40.5q62 0 110 -25t79 -58l-62 -75q-25 26 -55.5 41.5t-68.5 15.5q-53 0 -94.5 -28.5t-65 -81.5t-23.5 -127q0 -112 49 -175.5t131 -63.5q44 0 78 18.5t62 48.5l62 -73q-40 -46 -91.5 -70.5t-114.5 -24.5q-82 0 -149 39 t-106.5 114.5t-39.5 183.5z" />
<glyph unicode="D" horiz-adv-x="625" d="M83 0v654h175q150 0 234 -81t84 -243q0 -163 -83 -246.5t-229 -83.5h-181zM199 94h51q99 0 153 57.5t54 178.5q0 120 -54 175t-153 55h-51v-466z" />
<glyph unicode="E" horiz-adv-x="538" d="M83 0v654h394v-98h-278v-167h235v-98h-235v-193h288v-98h-404z" />
<glyph unicode="F" horiz-adv-x="510" d="M83 0v654h395v-98h-279v-185h238v-98h-238v-273h-116z" />
<glyph unicode="G" horiz-adv-x="628" d="M49 325q0 107 41 183.5t111 117t157 40.5q70 0 118.5 -25.5t79.5 -57.5l-62 -75q-25 24 -55.5 40.5t-76.5 16.5q-87 0 -140.5 -63.5t-53.5 -173.5q0 -112 51 -175.5t149 -63.5q28 0 53 7.5t41 21.5v141h-124v95h228v-288q-33 -33 -87.5 -55.5t-121.5 -22.5q-88 0 -158 39 t-110 114.5t-40 183.5z" />
<glyph unicode="H" horiz-adv-x="663" d="M83 0v654h116v-263h265v263h116v-654h-116v290h-265v-290h-116z" />
<glyph unicode="I" horiz-adv-x="282" d="M83 0v654h116v-654h-116z" />
<glyph unicode="J" horiz-adv-x="494" d="M24 99l80 59q20 -36 46 -52.5t56 -16.5q46 0 69 28t23 98v439h116v-449q0 -59 -20 -108.5t-63 -79t-112 -29.5q-68 0 -116 28t-79 83z" />
<glyph unicode="K" horiz-adv-x="597" d="M83 0v654h116v-297h3l233 297h129l-201 -255l235 -399h-128l-177 308l-94 -117v-191h-116z" />
<glyph unicode="L" horiz-adv-x="502" d="M83 0v654h116v-556h272v-98h-388z" />
<glyph unicode="M" horiz-adv-x="745" d="M83 0v654h131l116 -320q11 -31 21.5 -63.5t20.5 -64.5h4q11 32 21 64.5t20 63.5l113 320h132v-654h-107v299q0 31 2.5 67.5t6 73.5t6.5 67h-4l-53 -152l-107 -294h-69l-108 294l-52 152h-4q3 -30 6.5 -67t6 -73.5t2.5 -67.5v-299h-105z" />
<glyph unicode="N" horiz-adv-x="656" d="M83 0v654h119l204 -368l67 -139h4q-4 50 -9.5 109t-5.5 114v284h111v-654h-119l-204 368l-67 139h-4q4 -52 9.5 -109t5.5 -112v-286h-111z" />
<glyph unicode="O" horiz-adv-x="674" d="M49 330q0 106 36.5 181t101.5 115t150 40q86 0 151 -40t101.5 -115t36.5 -181t-36.5 -182.5t-101.5 -118t-151 -41.5q-85 0 -150 41.5t-101.5 118t-36.5 182.5zM168 330q0 -110 46 -175.5t123 -65.5t123 65.5t46 175.5t-46 172.5t-123 62.5t-123 -62.5t-46 -172.5z" />
<glyph unicode="P" horiz-adv-x="582" d="M83 0v654h206q73 0 130 -19t90 -63t33 -120q0 -72 -33 -119t-89 -70t-127 -23h-94v-240h-116zM199 333h85q144 0 144 119q0 62 -37.5 85.5t-110.5 23.5h-81v-228z" />
<glyph unicode="Q" horiz-adv-x="674" d="M49 330q0 106 36.5 181t101.5 115t150 40q86 0 151 -40t101.5 -115t36.5 -181q0 -136 -60 -223.5t-160 -110.5q23 -39 64 -57t88 -18q22 0 39.5 3t31.5 7l21 -86q-16 -7 -43.5 -13t-61.5 -6q-97 0 -163.5 47t-98.5 120q-70 13 -123 56.5t-82 115t-29 165.5zM168 330 q0 -115 46 -181t123 -66t123 66t46 181q0 110 -46 172.5t-123 62.5t-123 -62.5t-46 -172.5z" />
<glyph unicode="R" horiz-adv-x="592" d="M83 0v654h221q68 0 122.5 -18t86 -60.5t31.5 -115.5q0 -75 -35.5 -121t-94.5 -66l156 -273h-130l-141 256h-100v-256h-116zM199 348h93q67 0 102.5 28.5t35.5 83.5q0 56 -35.5 78.5t-102.5 22.5h-93v-213z" />
<glyph unicode="S" horiz-adv-x="545" d="M38 84l68 79q35 -33 80 -53.5t90 -20.5q56 0 85 23t29 61q0 41 -28.5 59t-72.5 37l-90 39q-32 14 -62.5 36t-50 56t-19.5 82q0 52 28.5 93.5t78 66t113.5 24.5q57 0 110 -22.5t91 -60.5l-59 -74q-31 26 -65.5 41t-76.5 15q-46 0 -74.5 -20.5t-28.5 -56.5 q0 -25 14.5 -41.5t38.5 -28t51 -22.5l89 -37q58 -25 95 -65.5t37 -111.5q0 -53 -28 -97t-80.5 -70.5t-126.5 -26.5q-66 0 -127.5 25t-108.5 71z" />
<glyph unicode="T" horiz-adv-x="546" d="M26 556v98h494v-98h-189v-556h-116v556h-189z" />
<glyph unicode="U" horiz-adv-x="655" d="M80 287v367h116v-376q0 -71 16.5 -112.5t46.5 -59t69 -17.5q40 0 70.5 17.5t48 59t17.5 112.5v376h111v-367q0 -107 -30 -173t-85.5 -96t-131.5 -30q-75 0 -131 30t-86.5 96t-30.5 173z" />
<glyph unicode="V" horiz-adv-x="536" d="M-4 654h123l92 -329q16 -55 29 -106t29 -107h4q17 56 29.5 107t27.5 106l91 329h119l-203 -654h-137z" />
<glyph unicode="W" horiz-adv-x="800" d="M18 654h119l57 -330q8 -52 16.5 -104.5t15.5 -104.5h4q11 52 21.5 104.5t21.5 104.5l80 330h101l80 -330q11 -51 22 -103.5t22 -105.5h4q8 53 16 105t15 104l57 330h111l-125 -654h-144l-81 344q-8 38 -15.5 76t-13.5 75h-4q-7 -37 -14.5 -75t-15.5 -76l-79 -344h-141z " />
<glyph unicode="X" horiz-adv-x="541" d="M13 0l186 337l-174 317h129l72 -145q12 -22 23.5 -46.5t26.5 -53.5h4q12 29 22.5 53.5t21.5 46.5l69 145h123l-174 -322l186 -332h-129l-80 154q-13 26 -25.5 51.5t-27.5 55.5h-4q-13 -30 -24.5 -55.5t-23.5 -51.5l-78 -154h-123z" />
<glyph unicode="Y" horiz-adv-x="501" d="M-4 654h124l71 -167q14 -37 28 -71.5t30 -72.5h4q16 38 31 72.5t29 71.5l71 167h121l-197 -411v-243h-116v243z" />
<glyph unicode="Z" horiz-adv-x="540" d="M40 0v70l316 486h-287v98h431v-70l-317 -486h319v-98h-462z" />
<glyph unicode="[" horiz-adv-x="324" d="M90 -152v860h196v-63h-109v-734h109v-63h-196z" />
<glyph unicode="\" horiz-adv-x="344" d="M21 710h78l234 -870h-78z" />
<glyph unicode="]" horiz-adv-x="324" d="M38 -89h109v734h-109v63h196v-860h-196v63z" />
<glyph unicode="^" d="M55 279l153 391h96l154 -391h-97l-55 151l-48 135h-4l-47 -135l-55 -151h-97z" />
<glyph unicode="_" horiz-adv-x="500" d="M12 -64h476v-69h-476v69z" />
<glyph unicode="`" horiz-adv-x="549" d="M106 728l80 76l147 -174l-57 -57z" />
<glyph unicode="a" horiz-adv-x="516" d="M47 132q0 79 69 122.5t220 59.5q-1 39 -20.5 67.5t-69.5 28.5q-36 0 -70.5 -14t-67.5 -34l-42 77q41 26 92.5 45t109.5 19q92 0 137.5 -54.5t45.5 -157.5v-291h-95l-8 54h-4q-33 -28 -70.5 -47t-81.5 -19q-64 0 -104.5 40t-40.5 104zM158 141q0 -33 20 -48t51 -15 q30 0 54.5 14.5t52.5 39.5v110q-100 -13 -139 -38.5t-39 -62.5z" />
<glyph unicode="b" horiz-adv-x="563" d="M73 0v706h115v-182l-3 -82q31 27 68 44t74 17q92 0 143 -68t51 -181q0 -84 -30 -143.5t-77.5 -91t-102.5 -31.5q-70 0 -134 64h-3l-10 -52h-91zM188 124q26 -22 51.5 -31.5t47.5 -9.5q49 0 82 43t33 126q0 74 -25 115t-81 41q-52 0 -108 -55v-229z" />
<glyph unicode="c" horiz-adv-x="462" d="M41 245q0 82 34 139.5t90.5 88t121.5 30.5q47 0 82 -16t62 -39l-56 -75q-19 17 -39 26.5t-43 9.5q-59 0 -96.5 -45t-37.5 -119q0 -73 36.5 -118t94.5 -45q29 0 54.5 12.5t46.5 29.5l47 -76q-34 -30 -76 -45t-84 -15q-67 0 -120.5 30.5t-85 88t-31.5 138.5z" />
<glyph unicode="d" horiz-adv-x="564" d="M43 245q0 80 29.5 138t77.5 89t101 31q42 0 71.5 -14.5t57.5 -39.5l-4 79v178h115v-706h-95l-8 53h-4q-27 -27 -63 -46t-76 -19q-92 0 -147 68t-55 189zM162 246q0 -79 29 -121t82 -42q55 0 103 55v229q-25 23 -50 32t-50 9q-47 0 -80.5 -42.5t-33.5 -119.5z" />
<glyph unicode="e" horiz-adv-x="507" d="M41 245q0 80 32.5 138t84.5 89t109 31q67 0 112 -29.5t68 -82t23 -121.5q0 -36 -5 -56h-312q8 -65 47 -101t98 -36q32 0 59.5 9.5t54.5 26.5l39 -72q-35 -23 -78 -38t-90 -15q-68 0 -123 30.5t-87 88t-32 138.5zM152 292h218q0 57 -25 89.5t-75 32.5q-43 0 -76.5 -31.5 t-41.5 -90.5z" />
<glyph unicode="f" horiz-adv-x="317" d="M27 400v86l66 5v51q0 77 38 126.5t125 49.5q26 0 50 -5t40 -12l-22 -86q-27 12 -54 12q-62 0 -62 -83v-53h96v-91h-96v-400h-115v400h-66z" />
<glyph unicode="g" horiz-adv-x="520" d="M40 -89q0 61 70 105v4q-19 12 -31.5 32t-12.5 50q0 29 16.5 52.5t37.5 38.5v4q-25 19 -44.5 53t-19.5 77q0 57 27 96t71.5 59.5t95.5 20.5q20 0 38.5 -3.5t33.5 -8.5h176v-85h-90q12 -14 20 -35.5t8 -47.5q0 -54 -25 -91.5t-67 -56.5t-94 -19q-16 0 -33 3t-34 10 q-11 -10 -17.5 -20t-6.5 -27q0 -21 17.5 -33t62.5 -12h87q89 0 134.5 -28.5t45.5 -92.5q0 -48 -32 -87.5t-91 -62.5t-139 -23q-58 0 -104.5 14t-73 42.5t-26.5 71.5zM136 -72q0 -33 34 -51.5t92 -18.5q59 0 96 24t37 55q0 29 -22.5 39t-64.5 10h-67q-40 0 -67 7 q-38 -29 -38 -65zM164 327q0 -47 25 -73t61 -26q35 0 60 26t25 73q0 46 -24.5 71.5t-60.5 25.5t-61 -25t-25 -72z" />
<glyph unicode="h" horiz-adv-x="558" d="M73 0v706h115v-182l-4 -95q31 29 69 51.5t88 22.5q79 0 115 -51t36 -144v-308h-115v293q0 61 -18 86t-59 25q-32 0 -56.5 -15.5t-55.5 -45.5v-343h-115z" />
<glyph unicode="i" horiz-adv-x="262" d="M62 643q0 29 19 47t50 18t50 -18t19 -47q0 -30 -19 -48t-50 -18t-50 18t-19 48zM73 0v491h115v-491h-115z" />
<glyph unicode="j" horiz-adv-x="263" d="M-46 -193l22 86q10 -3 20.5 -5.5t21.5 -2.5q33 0 44.5 22.5t11.5 65.5v518h116v-516q0 -52 -15 -93t-49 -64.5t-92 -23.5q-27 0 -46.5 4t-33.5 9zM63 643q0 29 19 47t50 18t50 -18t19 -47q0 -30 -19 -48t-50 -18t-50 18t-19 48z" />
<glyph unicode="k" horiz-adv-x="522" d="M73 0v706h113v-441h3l182 226h126l-168 -200l185 -291h-125l-126 213l-77 -88v-125h-113z" />
<glyph unicode="l" horiz-adv-x="271" d="M73 126v580h115v-586q0 -21 8 -29.5t17 -8.5q4 0 7.5 0.5l10.5 1.5l15 -86q-10 -4 -25.5 -7t-35.5 -3q-61 0 -86.5 37t-25.5 101z" />
<glyph unicode="m" horiz-adv-x="843" d="M73 0v491h95l8 -67h4q31 33 67.5 56t82.5 23q54 0 86.5 -23.5t49.5 -64.5q35 38 73.5 63t84.5 25q78 0 115 -51t37 -144v-308h-116v293q0 61 -18.5 86t-56.5 25q-46 0 -103 -61v-343h-115v293q0 61 -18.5 86t-57.5 25q-46 0 -103 -61v-343h-115z" />
<glyph unicode="n" horiz-adv-x="560" d="M73 0v491h95l8 -66h4q33 32 72 55t89 23q79 0 115 -51t36 -144v-308h-115v293q0 61 -18 86t-59 25q-32 0 -56.5 -15.5t-55.5 -45.5v-343h-115z" />
<glyph unicode="o" horiz-adv-x="549" d="M41 245q0 82 33 139.5t86 88t114 30.5q62 0 115 -30.5t86 -88t33 -139.5q0 -81 -33 -138.5t-86 -88t-115 -30.5q-61 0 -114 30.5t-86 88t-33 138.5zM159 245q0 -73 30.5 -118t84.5 -45t85 45t31 118q0 74 -31 119t-85 45t-84.5 -45t-30.5 -119z" />
<glyph unicode="p" horiz-adv-x="564" d="M73 -194v685h95l8 -52h4q31 26 69.5 45t78.5 19q92 0 142.5 -68t50.5 -182q0 -84 -30 -143.5t-77.5 -90.5t-102.5 -31q-32 0 -64 14.5t-62 39.5l3 -82v-154h-115zM188 124q27 -22 52 -31.5t47 -9.5q49 0 82 43t33 126q0 74 -25 115t-81 41q-52 0 -108 -55v-229z" />
<glyph unicode="q" horiz-adv-x="564" d="M43 245q0 80 29.5 138t77.5 89t101 31q41 0 73 -14.5t63 -44.5h3l10 47h91v-685h-115v161l4 82q-27 -26 -62 -43.5t-73 -17.5q-92 0 -147 68t-55 189zM162 246q0 -79 29 -121t82 -42q55 0 103 55v229q-25 23 -50 32t-50 9q-47 0 -80.5 -42.5t-33.5 -119.5z" />
<glyph unicode="r" horiz-adv-x="373" d="M73 0v491h95l8 -87h4q26 48 63 73.5t76 25.5q35 0 56 -10l-20 -100q-13 4 -24 6t-27 2q-29 0 -61 -22.5t-55 -78.5v-300h-115z" />
<glyph unicode="s" horiz-adv-x="431" d="M24 56l54 74q33 -25 66 -40t70 -15q40 0 59 17t19 42q0 21 -15.5 34.5t-39.5 24t-50 20.5q-32 12 -63.5 29.5t-51.5 45t-20 68.5q0 65 48 106t130 41q52 0 93 -18t71 -41l-53 -70q-26 19 -52.5 30.5t-55.5 11.5q-37 0 -55 -15.5t-18 -38.5q0 -29 30 -44t70 -29 q34 -12 66 -29.5t53.5 -45.5t21.5 -74q0 -63 -49 -107.5t-142 -44.5q-50 0 -100 19.5t-86 48.5z" />
<glyph unicode="t" horiz-adv-x="361" d="M20 400v86l76 5l14 134h96v-134h125v-91h-125v-234q0 -86 69 -86q13 0 27 3.5t24 7.5l20 -85q-20 -7 -45.5 -12.5t-54.5 -5.5q-85 0 -120.5 49.5t-35.5 128.5v234h-70z" />
<glyph unicode="u" horiz-adv-x="556" d="M68 183v308h115v-293q0 -61 18 -86t58 -25q32 0 56.5 16t52.5 52v336h115v-491h-94l-9 72h-3q-32 -38 -70 -61t-88 -23q-79 0 -115 51t-36 144z" />
<glyph unicode="v" horiz-adv-x="495" d="M12 491h117l78 -255q10 -36 20.5 -73t20.5 -75h4q11 38 21.5 75t20.5 73l78 255h111l-167 -491h-133z" />
<glyph unicode="w" horiz-adv-x="748" d="M24 491h116l59 -255q8 -35 13.5 -70t12.5 -71h4q7 36 14.5 71.5t16.5 69.5l64 255h105l65 -255q9 -35 17 -70t16 -71h4q7 36 13 71t13 70l59 255h108l-125 -491h-137l-57 229q-8 35 -15 69.5t-15 73.5h-4q-7 -39 -14 -74t-15 -70l-56 -228h-132z" />
<glyph unicode="x" horiz-adv-x="481" d="M14 0l156 256l-146 235h124l55 -93q11 -20 22.5 -41.5t22.5 -41.5h4q9 20 19 41.5t19 41.5l47 93h119l-145 -248l156 -243h-124l-60 97q-12 22 -24.5 44t-25.5 43h-4q-10 -21 -21 -42.5t-22 -44.5l-52 -97h-120z" />
<glyph unicode="y" horiz-adv-x="495" d="M12 491h117l85 -241q11 -32 21.5 -67.5t21.5 -70.5h4q9 34 18.5 69.5t18.5 68.5l74 241h111l-178 -513q-31 -83 -75 -131.5t-124 -48.5q-20 0 -35 3t-29 7l21 90q7 -2 16.5 -4.5t18.5 -2.5q39 0 62.5 23.5t35.5 60.5l9 31z" />
<glyph unicode="z" horiz-adv-x="443" d="M34 0v62l232 338h-206v91h350v-61l-231 -338h239v-92h-384z" />
<glyph unicode="{" horiz-adv-x="324" d="M32 243v70q50 1 68 24.5t18 50.5q0 50 -4.5 89t-4.5 93q0 80 30 109t93 29h54v-63h-23q-36 0 -48.5 -17.5t-12.5 -62.5q0 -43 2.5 -83.5t2.5 -88.5q0 -53 -16 -78.5t-51 -34.5v-4q35 -9 51 -34.5t16 -78.5q0 -48 -2.5 -88.5t-2.5 -83.5q0 -45 12.5 -62.5t48.5 -17.5h23 v-63h-54q-63 0 -93 29.5t-30 108.5q0 54 4.5 93t4.5 88q0 28 -18 51.5t-68 24.5z" />
<glyph unicode="|" horiz-adv-x="255" d="M89 -250v1000h77v-1000h-77z" />
<glyph unicode="}" horiz-adv-x="324" d="M38 -89h23q36 0 48.5 17.5t12.5 62.5q0 43 -2.5 83.5t-2.5 88.5q0 53 16 78.5t51 34.5v4q-35 9 -51 34.5t-16 78.5q0 48 2.5 88.5t2.5 83.5q0 45 -12.5 62.5t-48.5 17.5h-23v63h54q63 0 93 -29t30 -109q0 -54 -4.5 -93t-4.5 -89q0 -27 18 -50.5t68 -24.5v-70 q-50 -1 -68 -24.5t-18 -51.5q0 -49 4.5 -88t4.5 -93q0 -79 -30 -108.5t-93 -29.5h-54v63z" />
<glyph unicode="~" d="M32 315q32 52 68 74.5t70 22.5q30 0 53.5 -12t43.5 -28t38.5 -28t39.5 -12q42 0 74 59l61 -47q-31 -51 -66.5 -73.5t-70.5 -22.5q-30 0 -53.5 12t-43.5 28t-38.5 28t-39.5 12q-42 0 -74 -59z" />
<glyph unicode="&#xa1;" horiz-adv-x="315" d="M83 426q0 33 22 55t53 22q32 0 53 -22t21 -55q0 -34 -21 -56.5t-53 -22.5q-31 0 -53 22.5t-22 56.5zM100 -179l3 114l16 341h77l16 -341l4 -114h-116z" />
<glyph unicode="&#xa2;" d="M61 308q0 70 27 121.5t74.5 83t106.5 40.5v101h66v-98q41 -2 73.5 -18t54.5 -39l-54 -71q-35 31 -74 35v-308q26 2 48 14t40 27l48 -73q-29 -26 -64.5 -41.5t-71.5 -20.5v-98h-66v99q-94 12 -151 75.5t-57 170.5zM173 308q0 -55 25 -93.5t71 -52.5v293q-46 -15 -71 -53 t-25 -94z" />
<glyph unicode="&#xa3;" d="M51 0v71q48 24 77 67.5t29 98.5q0 11 -1 21t-3 20h-100v69l67 5h12q-8 26 -14.5 51.5t-6.5 50.5q0 90 56 142t144 52q55 0 94.5 -21t69.5 -57l-64 -63q-19 22 -40 34.5t-50 12.5q-46 0 -72.5 -28t-26.5 -78q0 -25 5 -48.5t12 -47.5h154v-74h-137q3 -19 3 -42 q0 -44 -13 -74.5t-40 -59.5v-4h270v-98h-425z" />
<glyph unicode="&#xa4;" d="M23 153l62 63q-16 23 -25.5 51.5t-9.5 61.5q0 34 9.5 62.5t25.5 51.5l-62 63l59 60l68 -70q48 31 106 31t106 -31l69 70l59 -60l-63 -63q17 -23 26 -51.5t9 -62.5q0 -33 -9 -61.5t-26 -51.5l63 -63l-59 -60l-69 70q-23 -16 -50.5 -23.5t-55.5 -7.5t-55 7.5t-50 23.5 l-69 -70zM154 329q0 -52 30 -83.5t72 -31.5q43 0 72.5 31.5t29.5 83.5q0 53 -29.5 84.5t-72.5 31.5q-42 0 -72 -31.5t-30 -84.5z" />
<glyph unicode="&#xa5;" d="M18 636h119l64 -151q14 -33 27 -66t28 -67h4q14 34 28 67t27 66l64 151h116l-155 -306h132v-59h-158v-59h158v-60h-158v-152h-116v152h-157v60h157v59h-157v59h131z" />
<glyph unicode="&#xa6;" horiz-adv-x="255" d="M89 209h77v-459h-77v459zM89 302v448h77v-448h-77z" />
<glyph unicode="&#xa7;" d="M41 334q0 41 23 74t60 55q-14 16 -22 36.5t-8 45.5q0 60 42.5 101t121.5 41q53 0 95.5 -19t72.5 -42l-54 -73q-23 20 -50.5 33.5t-57.5 13.5q-34 0 -50 -14t-16 -36t20 -38.5t51 -30.5t66 -29.5t66 -37.5t51 -53t20 -77t-22 -77t-61 -54q12 -16 19 -35.5t7 -44.5 q0 -63 -47 -105t-130 -42q-54 0 -103 20t-81 58l68 60q25 -25 53.5 -38.5t62.5 -13.5q35 0 53.5 16t18.5 40t-19.5 40.5t-50 30t-65 28.5t-65 36.5t-50 53t-19.5 77.5zM140 342q0 -28 17.5 -47t46 -33.5t61 -28t62.5 -30.5q23 12 34.5 29t11.5 43q0 28 -17.5 47.5t-45.5 34 t-60.5 28.5t-62.5 30q-22 -13 -34.5 -30.5t-12.5 -42.5z" />
<glyph unicode="&#xa8;" horiz-adv-x="549" d="M110 639q0 26 17.5 43.5t43.5 17.5q27 0 44 -17.5t17 -43.5q0 -25 -17 -43t-44 -18q-26 0 -43.5 18t-17.5 43zM316 639q0 26 17 43.5t44 17.5q26 0 43.5 -17.5t17.5 -43.5q0 -25 -17.5 -43t-43.5 -18q-27 0 -44 18t-17 43z" />
<glyph unicode="&#xa9;" horiz-adv-x="747" d="M47 324q0 77 26 138t71.5 104t104.5 65.5t125 22.5t124.5 -22.5t104 -65.5t71.5 -104t26 -138t-26 -138.5t-71.5 -105.5t-104 -67t-124.5 -23t-125 23t-104.5 67t-71.5 105.5t-26 138.5zM105 324q0 -84 36 -147.5t97 -99t136 -35.5t135.5 35.5t96.5 99t36 147.5 q0 85 -36 147.5t-96.5 97t-135.5 34.5t-136 -34.5t-97 -97t-36 -147.5zM196 323q0 59 26.5 101.5t70 66t92.5 23.5q44 0 74.5 -17t54.5 -41l-45 -50q-19 18 -37 27.5t-41 9.5q-51 0 -80 -34t-29 -86q0 -58 28.5 -92t76.5 -34q29 0 50 11.5t41 27.5l39 -56q-28 -23 -60 -38.5 t-73 -15.5q-53 0 -96 24t-67.5 68t-24.5 105z" />
<glyph unicode="&#xaa;" horiz-adv-x="352" d="M33 474q0 53 46 81t147 38q-1 27 -13.5 43t-42.5 16q-23 0 -47.5 -9.5t-47.5 -22.5l-30 55q29 17 64.5 30t74.5 13q125 0 125 -141v-192h-67l-8 35h-4q-19 -18 -43.5 -30.5t-53.5 -12.5q-46 0 -73 27.5t-27 69.5zM114 481q0 -40 46 -40q32 0 66 33v70q-63 -7 -87.5 -23.5 t-24.5 -39.5z" />
<glyph unicode="&#xab;" horiz-adv-x="455" d="M47 210v84l135 149l46 -37l-115 -154l115 -155l-46 -36zM221 210v84l135 149l46 -37l-115 -154l115 -155l-46 -36z" />
<glyph unicode="&#xac;" d="M34 288v84h445v-273h-87v189h-358z" />
<glyph unicode="&#xae;" horiz-adv-x="443" d="M28 514q0 59 26 104t70 70.5t97 25.5q54 0 97.5 -25.5t69.5 -70.5t26 -104q0 -58 -26 -103t-69.5 -70.5t-97.5 -25.5q-53 0 -97 25.5t-70 70.5t-26 103zM75 514q0 -70 41.5 -113t104.5 -43t104.5 43t41.5 113q0 71 -41.5 114.5t-104.5 43.5t-104.5 -43.5t-41.5 -114.5z M144 417v199h83q33 0 56.5 -15t23.5 -50q0 -17 -9.5 -32t-27.5 -23l44 -79h-53l-33 65h-34v-65h-50zM194 518h23q37 0 37 30q0 13 -8.5 21.5t-27.5 8.5h-24v-60z" />
<glyph unicode="&#xaf;" horiz-adv-x="549" d="M134 596v76h280v-76h-280z" />
<glyph unicode="&#xb0;" horiz-adv-x="348" d="M40 549q0 41 18.5 71.5t49 47.5t67.5 17t67.5 -17t49 -47.5t18.5 -71.5q0 -40 -18.5 -71t-49 -48t-67.5 -17t-67.5 17t-49 48t-18.5 71zM104 549q0 -34 20 -55.5t51 -21.5q32 0 51.5 21.5t19.5 55.5q0 35 -19.5 56.5t-51.5 21.5q-31 0 -51 -21.5t-20 -56.5z" />
<glyph unicode="&#xb1;" d="M34 0v83h445v-83h-445zM34 299v83h179v179h87v-179h179v-83h-179v-156h-87v156h-179z" />
<glyph unicode="&#xb2;" horiz-adv-x="372" d="M33 709q26 37 62 57.5t78 20.5q62 0 99.5 -33.5t37.5 -95.5q0 -52 -36 -98.5t-88 -101.5h141v-73h-279v48q83 71 130.5 121t47.5 90q0 33 -17.5 52t-48.5 19q-22 0 -41 -14.5t-36 -37.5z" />
<glyph unicode="&#xb3;" horiz-adv-x="372" d="M31 451l54 42q36 -53 91 -53q28 0 47.5 15t19.5 43q0 29 -27.5 44.5t-79.5 15.5v51q43 0 67.5 16t24.5 44q0 23 -16 37t-43 14q-20 0 -38.5 -12t-33.5 -31l-50 44q29 32 61 49t75 17q53 0 91.5 -28.5t38.5 -78.5q0 -33 -16.5 -55.5t-45.5 -37.5q32 -10 54.5 -34t22.5 -61 q0 -36 -20 -62.5t-53 -41.5t-72 -15q-49 0 -88.5 21t-63.5 57z" />
<glyph unicode="&#xb4;" horiz-adv-x="549" d="M215 630l147 174l80 -76l-170 -155z" />
<glyph unicode="&#xb5;" horiz-adv-x="578" d="M73 -178v669h115v-293q0 -58 18 -84.5t57 -26.5q29 0 54.5 16t52.5 63v325h116q-1 -61 -3 -127.5t-3.5 -128.5t-1.5 -112q0 -22 11 -31.5t29 -9.5q15 0 30 6l15 -86q-13 -6 -30 -10t-43 -4q-92 0 -108 88h-4q-22 -42 -52.5 -63t-66.5 -21q-24 0 -44 6.5t-34 27.5 q1 -42 1.5 -74.5t2.5 -62.5t5 -67h-117z" />
<glyph unicode="&#xb6;" horiz-adv-x="599" d="M40 436q0 81 33 129t89.5 68.5t125.5 20.5h44v-442h-37q-71 0 -129 24.5t-92 74t-34 125.5zM387 -80v734h116v-734h-116z" />
<glyph unicode="&#xb7;" horiz-adv-x="275" d="M63 321q0 34 22 56t53 22q32 0 53 -22t21 -56t-21 -56t-53 -22q-31 0 -53 22t-22 56z" />
<glyph unicode="&#xb8;" horiz-adv-x="549" d="M174 -183q61 4 83.5 14.5t22.5 32.5q0 17 -16.5 28t-60.5 17l46 94h70l-29 -65q36 -9 55.5 -25.5t19.5 -47.5q0 -47 -47.5 -70.5t-133.5 -27.5z" />
<glyph unicode="&#xb9;" horiz-adv-x="372" d="M82 679v54q37 6 59.5 16t44.5 26h69v-390h-87v294h-86z" />
<glyph unicode="&#xba;" horiz-adv-x="369" d="M27 547q0 54 22 92t57.5 58.5t77.5 20.5t77.5 -20.5t57.5 -58.5t22 -92q0 -53 -22 -91.5t-57.5 -58.5t-77.5 -20t-77.5 20t-57.5 58.5t-22 91.5zM112 547q0 -46 18.5 -74.5t53.5 -28.5t53.5 28.5t18.5 74.5q0 47 -18.5 76t-53.5 29t-53.5 -29t-18.5 -76z" />
<glyph unicode="&#xbb;" horiz-adv-x="455" d="M54 97l114 155l-114 154l45 37l136 -149v-84l-136 -149zM228 97l114 155l-114 154l45 37l136 -149v-84l-136 -149z" />
<glyph unicode="&#xbc;" horiz-adv-x="795" d="M55 558v54q37 6 59.5 16t44.5 26h69v-390h-87v294h-86zM183 -12l357 678h70l-356 -678h-71zM461 95v44l152 251h104v-236h58v-59h-58v-95h-77v95h-179zM545 154h95v55l5 113h-4l-45 -79z" />
<glyph unicode="&#xbd;" horiz-adv-x="827" d="M55 558v54q37 6 59.5 16t44.5 26h69v-390h-87v294h-86zM165 -12l357 678h70l-356 -678h-71zM488 324q26 37 62 57.5t78 20.5q62 0 99.5 -33.5t37.5 -95.5q0 -52 -36 -98.5t-88 -101.5h141v-73h-279v48q83 71 130.5 121t47.5 90q0 33 -17.5 52t-48.5 19q-22 0 -41 -14.5 t-36 -37.5z" />
<glyph unicode="&#xbe;" horiz-adv-x="807" d="M29 330l54 42q36 -53 91 -53q28 0 47.5 15t19.5 43q0 29 -27.5 44.5t-79.5 15.5v51q43 0 67.5 16t24.5 44q0 23 -16 37t-43 14q-20 0 -38.5 -12t-33.5 -31l-50 44q29 32 61 49t75 17q53 0 91.5 -28.5t38.5 -78.5q0 -33 -16.5 -55.5t-45.5 -37.5q32 -10 54.5 -34t22.5 -61 q0 -36 -20 -62.5t-53 -41.5t-72 -15q-49 0 -88.5 21t-63.5 57zM213 -12l357 678h70l-356 -678h-71zM473 95v44l152 251h104v-236h58v-59h-58v-95h-77v95h-179zM557 154h95v55l5 113h-4l-45 -79z" />
<glyph unicode="&#xbf;" horiz-adv-x="444" d="M45 -25q0 38 15.5 68t38 56t44 52t34.5 56t9 69h102q6 -44 -5.5 -78t-32 -62t-42.5 -53t-37 -49t-15 -51q0 -35 21.5 -57.5t60.5 -22.5q30 0 55 14.5t47 37.5l65 -59q-34 -37 -79.5 -62t-101.5 -25q-79 0 -129 42t-50 124zM162 426q0 33 21.5 55t52.5 22q32 0 53 -22 t21 -55q0 -34 -21 -56.5t-53 -22.5q-31 0 -52.5 22.5t-21.5 56.5z" />
<glyph unicode="&#xc0;" horiz-adv-x="558" d="M-2 0l213 654h136l213 -654h-122l-51 177h-220l-51 -177h-118zM124 805l62 76l157 -135l-51 -58zM194 268h167l-23 80q-16 52 -30.5 107t-28.5 109h-4q-13 -55 -27.5 -109.5t-30.5 -106.5z" />
<glyph unicode="&#xc1;" horiz-adv-x="558" d="M-2 0l213 654h136l213 -654h-122l-51 177h-220l-51 -177h-118zM194 268h167l-23 80q-16 52 -30.5 107t-28.5 109h-4q-13 -55 -27.5 -109.5t-30.5 -106.5zM213 746l157 135l62 -76l-168 -117z" />
<glyph unicode="&#xc2;" horiz-adv-x="558" d="M-2 0l213 654h136l213 -654h-122l-51 177h-220l-51 -177h-118zM119 725l97 111h124l97 -111l-50 -33l-107 88h-4l-107 -88zM194 268h167l-23 80q-16 52 -30.5 107t-28.5 109h-4q-13 -55 -27.5 -109.5t-30.5 -106.5z" />
<glyph unicode="&#xc3;" horiz-adv-x="558" d="M-2 0l213 654h136l213 -654h-122l-51 177h-220l-51 -177h-118zM90 713q4 67 35 100t80 33q27 0 47.5 -9.5t36.5 -22.5t30 -22.5t29 -9.5q35 0 42 58l76 -6q-4 -67 -35 -100.5t-80 -33.5q-27 0 -47.5 9.5t-36.5 22.5t-30 22.5t-29 9.5q-16 0 -27.5 -13.5t-14.5 -43.5z M194 268h167l-23 80q-16 52 -30.5 107t-28.5 109h-4q-13 -55 -27.5 -109.5t-30.5 -106.5z" />
<glyph unicode="&#xc4;" horiz-adv-x="558" d="M-2 0l213 654h136l213 -654h-122l-51 177h-220l-51 -177h-118zM112 767q0 26 16.5 43t42.5 17t43 -17t17 -43q0 -25 -17 -42t-43 -17t-42.5 17t-16.5 42zM194 268h167l-23 80q-16 52 -30.5 107t-28.5 109h-4q-13 -55 -27.5 -109.5t-30.5 -106.5zM325 767q0 26 17 43 t43 17t42.5 -17t16.5 -43q0 -25 -16.5 -42t-42.5 -17t-43 17t-17 42z" />
<glyph unicode="&#xc5;" horiz-adv-x="558" d="M-2 0l213 654h136l213 -654h-122l-51 177h-220l-51 -177h-118zM172 792q0 44 30 69.5t76 25.5t76 -25.5t30 -69.5q0 -43 -30 -68.5t-76 -25.5t-76 25.5t-30 68.5zM194 268h167l-23 80q-16 52 -30.5 107t-28.5 109h-4q-13 -55 -27.5 -109.5t-30.5 -106.5zM231 792 q0 -22 14 -35t33 -13t32.5 13t13.5 35q0 23 -13.5 36t-32.5 13t-33 -13t-14 -36z" />
<glyph unicode="&#xc6;" horiz-adv-x="834" d="M-3 0l327 654h449v-98h-263v-167h221v-98h-221v-193h273v-98h-389v170h-192l-83 -170h-122zM246 261h148v304h-4q-24 -50 -47 -100.5t-46 -98.5z" />
<glyph unicode="&#xc7;" horiz-adv-x="576" d="M49 325q0 107 40.5 183.5t108.5 117t150 40.5q62 0 110 -25t79 -58l-62 -75q-25 26 -55.5 41.5t-68.5 15.5q-53 0 -94.5 -28.5t-65 -81.5t-23.5 -127q0 -112 49 -175.5t131 -63.5q44 0 78 18.5t62 48.5l62 -73q-40 -46 -91.5 -70.5t-114.5 -24.5q-82 0 -149 39 t-106.5 114.5t-39.5 183.5zM242 -183q61 4 83.5 14.5t22.5 32.5q0 17 -16.5 28t-60.5 17l46 94h70l-29 -65q36 -9 55.5 -25.5t19.5 -47.5q0 -47 -47.5 -70.5t-133.5 -27.5z" />
<glyph unicode="&#xc8;" horiz-adv-x="538" d="M83 0v654h394v-98h-278v-167h235v-98h-235v-193h288v-98h-404zM136 805l62 76l157 -135l-51 -58z" />
<glyph unicode="&#xc9;" horiz-adv-x="538" d="M83 0v654h394v-98h-278v-167h235v-98h-235v-193h288v-98h-404zM225 746l157 135l62 -76l-168 -117z" />
<glyph unicode="&#xca;" horiz-adv-x="538" d="M83 0v654h394v-98h-278v-167h235v-98h-235v-193h288v-98h-404zM131 725l97 111h124l97 -111l-50 -33l-107 88h-4l-107 -88z" />
<glyph unicode="&#xcb;" horiz-adv-x="538" d="M83 0v654h394v-98h-278v-167h235v-98h-235v-193h288v-98h-404zM124 767q0 26 16.5 43t42.5 17t43 -17t17 -43q0 -25 -17 -42t-43 -17t-42.5 17t-16.5 42zM337 767q0 26 17 43t43 17t42.5 -17t16.5 -43q0 -25 -16.5 -42t-42.5 -17t-43 17t-17 42z" />
<glyph unicode="&#xcc;" horiz-adv-x="282" d="M-12 805l62 76l157 -135l-51 -58zM83 0v654h116v-654h-116z" />
<glyph unicode="&#xcd;" horiz-adv-x="282" d="M77 746l157 135l62 -76l-168 -117zM83 0v654h116v-654h-116z" />
<glyph unicode="&#xce;" horiz-adv-x="282" d="M-17 725l97 111h124l97 -111l-50 -33l-107 88h-4l-107 -88zM83 0v654h116v-654h-116z" />
<glyph unicode="&#xcf;" horiz-adv-x="282" d="M-24 767q0 26 16.5 43t42.5 17t43 -17t17 -43q0 -25 -17 -42t-43 -17t-42.5 17t-16.5 42zM83 0v654h116v-654h-116zM189 767q0 26 17 43t43 17t42.5 -17t16.5 -43q0 -25 -16.5 -42t-42.5 -17t-43 17t-17 42z" />
<glyph unicode="&#xd0;" horiz-adv-x="649" d="M30 311v55l77 4v284h175q150 0 234 -81t84 -243q0 -163 -83 -246.5t-229 -83.5h-181v311h-77zM223 94h51q99 0 153 57.5t54 178.5q0 120 -54 175t-153 55h-51v-190h137v-59h-137v-217z" />
<glyph unicode="&#xd1;" horiz-adv-x="656" d="M83 0v654h119l204 -368l67 -139h4q-4 50 -9.5 109t-5.5 114v284h111v-654h-119l-204 368l-67 139h-4q4 -52 9.5 -109t5.5 -112v-286h-111zM148 713q4 67 35 100t80 33q27 0 47.5 -9.5t36.5 -22.5t30 -22.5t29 -9.5q35 0 42 58l76 -6q-4 -67 -35 -100.5t-80 -33.5 q-27 0 -47.5 9.5t-36.5 22.5t-30 22.5t-29 9.5q-16 0 -27.5 -13.5t-14.5 -43.5z" />
<glyph unicode="&#xd2;" horiz-adv-x="674" d="M49 330q0 106 36.5 181t101.5 115t150 40q86 0 151 -40t101.5 -115t36.5 -181t-36.5 -182.5t-101.5 -118t-151 -41.5q-85 0 -150 41.5t-101.5 118t-36.5 182.5zM168 330q0 -110 46 -175.5t123 -65.5t123 65.5t46 175.5t-46 172.5t-123 62.5t-123 -62.5t-46 -172.5z M183 805l62 76l157 -135l-51 -58z" />
<glyph unicode="&#xd3;" horiz-adv-x="674" d="M49 330q0 106 36.5 181t101.5 115t150 40q86 0 151 -40t101.5 -115t36.5 -181t-36.5 -182.5t-101.5 -118t-151 -41.5q-85 0 -150 41.5t-101.5 118t-36.5 182.5zM168 330q0 -110 46 -175.5t123 -65.5t123 65.5t46 175.5t-46 172.5t-123 62.5t-123 -62.5t-46 -172.5z M272 746l157 135l62 -76l-168 -117z" />
<glyph unicode="&#xd4;" horiz-adv-x="674" d="M49 330q0 106 36.5 181t101.5 115t150 40q86 0 151 -40t101.5 -115t36.5 -181t-36.5 -182.5t-101.5 -118t-151 -41.5q-85 0 -150 41.5t-101.5 118t-36.5 182.5zM168 330q0 -110 46 -175.5t123 -65.5t123 65.5t46 175.5t-46 172.5t-123 62.5t-123 -62.5t-46 -172.5z M178 725l97 111h124l97 -111l-50 -33l-107 88h-4l-107 -88z" />
<glyph unicode="&#xd5;" horiz-adv-x="674" d="M49 330q0 106 36.5 181t101.5 115t150 40q86 0 151 -40t101.5 -115t36.5 -181t-36.5 -182.5t-101.5 -118t-151 -41.5q-85 0 -150 41.5t-101.5 118t-36.5 182.5zM149 713q4 67 35 100t80 33q27 0 47.5 -9.5t36.5 -22.5t30 -22.5t29 -9.5q35 0 42 58l76 -6 q-4 -67 -35 -100.5t-80 -33.5q-27 0 -47.5 9.5t-36.5 22.5t-30 22.5t-29 9.5q-16 0 -27.5 -13.5t-14.5 -43.5zM168 330q0 -110 46 -175.5t123 -65.5t123 65.5t46 175.5t-46 172.5t-123 62.5t-123 -62.5t-46 -172.5z" />
<glyph unicode="&#xd6;" horiz-adv-x="674" d="M49 330q0 106 36.5 181t101.5 115t150 40q86 0 151 -40t101.5 -115t36.5 -181t-36.5 -182.5t-101.5 -118t-151 -41.5q-85 0 -150 41.5t-101.5 118t-36.5 182.5zM168 330q0 -110 46 -175.5t123 -65.5t123 65.5t46 175.5t-46 172.5t-123 62.5t-123 -62.5t-46 -172.5z M171 767q0 26 16.5 43t42.5 17t43 -17t17 -43q0 -25 -17 -42t-43 -17t-42.5 17t-16.5 42zM384 767q0 26 17 43t43 17t42.5 -17t16.5 -43q0 -25 -16.5 -42t-42.5 -17t-43 17t-17 42z" />
<glyph unicode="&#xd7;" d="M49 179l148 150l-148 151l59 60l148 -152l149 152l59 -60l-149 -151l149 -150l-59 -60l-149 151l-148 -151z" />
<glyph unicode="&#xd8;" horiz-adv-x="674" d="M45 12l70 89q-31 43 -47.5 101t-16.5 128q0 106 36.5 181t101.5 115t150 40q103 0 175 -57l64 81l62 -48l-72 -91q29 -42 44.5 -97.5t15.5 -123.5q0 -106 -36.5 -182.5t-101.5 -118t-151 -41.5q-100 0 -170 56l-63 -80zM170 330q0 -74 22 -131l254 323q-43 43 -107 43 q-77 0 -123 -62.5t-46 -172.5zM237 130q41 -41 102 -41q77 0 123 65.5t46 175.5q0 35 -5 65t-14 55z" />
<glyph unicode="&#xd9;" horiz-adv-x="655" d="M80 287v367h116v-376q0 -71 16.5 -112.5t46.5 -59t69 -17.5q40 0 70.5 17.5t48 59t17.5 112.5v376h111v-367q0 -107 -30 -173t-85.5 -96t-131.5 -30q-75 0 -131 30t-86.5 96t-30.5 173zM173 805l62 76l157 -135l-51 -58z" />
<glyph unicode="&#xda;" horiz-adv-x="655" d="M80 287v367h116v-376q0 -71 16.5 -112.5t46.5 -59t69 -17.5q40 0 70.5 17.5t48 59t17.5 112.5v376h111v-367q0 -107 -30 -173t-85.5 -96t-131.5 -30q-75 0 -131 30t-86.5 96t-30.5 173zM262 746l157 135l62 -76l-168 -117z" />
<glyph unicode="&#xdb;" horiz-adv-x="655" d="M80 287v367h116v-376q0 -71 16.5 -112.5t46.5 -59t69 -17.5q40 0 70.5 17.5t48 59t17.5 112.5v376h111v-367q0 -107 -30 -173t-85.5 -96t-131.5 -30q-75 0 -131 30t-86.5 96t-30.5 173zM168 725l97 111h124l97 -111l-50 -33l-107 88h-4l-107 -88z" />
<glyph unicode="&#xdc;" horiz-adv-x="655" d="M80 287v367h116v-376q0 -71 16.5 -112.5t46.5 -59t69 -17.5q40 0 70.5 17.5t48 59t17.5 112.5v376h111v-367q0 -107 -30 -173t-85.5 -96t-131.5 -30q-75 0 -131 30t-86.5 96t-30.5 173zM161 767q0 26 16.5 43t42.5 17t43 -17t17 -43q0 -25 -17 -42t-43 -17t-42.5 17 t-16.5 42zM374 767q0 26 17 43t43 17t42.5 -17t16.5 -43q0 -25 -16.5 -42t-42.5 -17t-43 17t-17 42z" />
<glyph unicode="&#xdd;" horiz-adv-x="501" d="M-4 654h124l71 -167q14 -37 28 -71.5t30 -72.5h4q16 38 31 72.5t29 71.5l71 167h121l-197 -411v-243h-116v243zM185 746l157 135l62 -76l-168 -117z" />
<glyph unicode="&#xde;" horiz-adv-x="600" d="M83 0v654h116v-104h104q72 0 128 -19t88.5 -63t32.5 -120q0 -73 -33 -120t-89 -69.5t-127 -22.5h-104v-136h-116zM199 229h95q144 0 144 119q0 61 -36.5 85t-107.5 24h-95v-228z" />
<glyph unicode="&#xdf;" horiz-adv-x="604" d="M73 0v501q0 95 55 155t162 60q61 0 101.5 -22t61.5 -57.5t21 -76.5q0 -37 -12.5 -63t-29.5 -46t-29.5 -38.5t-12.5 -41.5q0 -24 19 -40t47 -29.5t55.5 -32.5t46.5 -48.5t19 -76.5q0 -65 -45 -110.5t-128 -45.5q-42 0 -77 12.5t-69 34.5l42 79q51 -39 101 -39q33 0 51 19 t18 45q0 29 -19 47t-46.5 32t-55 31t-46.5 42.5t-19 65.5q0 31 12 54t27.5 42.5t27.5 41.5t12 52q0 34 -18.5 56t-54.5 22q-49 0 -76 -36.5t-27 -104.5v-484h-114z" />
<glyph unicode="&#xe0;" horiz-adv-x="516" d="M47 132q0 79 69 122.5t220 59.5q-1 39 -20.5 67.5t-69.5 28.5q-36 0 -70.5 -14t-67.5 -34l-42 77q41 26 92.5 45t109.5 19q92 0 137.5 -54.5t45.5 -157.5v-291h-95l-8 54h-4q-33 -28 -70.5 -47t-81.5 -19q-64 0 -104.5 40t-40.5 104zM104 728l80 76l147 -174l-57 -57z M158 141q0 -33 20 -48t51 -15q30 0 54.5 14.5t52.5 39.5v110q-100 -13 -139 -38.5t-39 -62.5z" />
<glyph unicode="&#xe1;" horiz-adv-x="516" d="M47 132q0 79 69 122.5t220 59.5q-1 39 -20.5 67.5t-69.5 28.5q-36 0 -70.5 -14t-67.5 -34l-42 77q41 26 92.5 45t109.5 19q92 0 137.5 -54.5t45.5 -157.5v-291h-95l-8 54h-4q-33 -28 -70.5 -47t-81.5 -19q-64 0 -104.5 40t-40.5 104zM158 141q0 -33 20 -48t51 -15 q30 0 54.5 14.5t52.5 39.5v110q-100 -13 -139 -38.5t-39 -62.5zM213 630l147 174l80 -76l-170 -155z" />
<glyph unicode="&#xe2;" horiz-adv-x="516" d="M47 132q0 79 69 122.5t220 59.5q-1 39 -20.5 67.5t-69.5 28.5q-36 0 -70.5 -14t-67.5 -34l-42 77q41 26 92.5 45t109.5 19q92 0 137.5 -54.5t45.5 -157.5v-291h-95l-8 54h-4q-33 -28 -70.5 -47t-81.5 -19q-64 0 -104.5 40t-40.5 104zM103 607l111 135h116l111 -135 l-45 -43l-122 103h-4l-122 -103zM158 141q0 -33 20 -48t51 -15q30 0 54.5 14.5t52.5 39.5v110q-100 -13 -139 -38.5t-39 -62.5z" />
<glyph unicode="&#xe3;" horiz-adv-x="516" d="M47 132q0 79 69 122.5t220 59.5q-1 39 -20.5 67.5t-69.5 28.5q-36 0 -70.5 -14t-67.5 -34l-42 77q41 26 92.5 45t109.5 19q92 0 137.5 -54.5t45.5 -157.5v-291h-95l-8 54h-4q-33 -28 -70.5 -47t-81.5 -19q-64 0 -104.5 40t-40.5 104zM90 586q2 68 30 106t83 38 q25 0 44 -11t34.5 -26t29.5 -26t29 -11q18 0 27.5 18t12.5 49l74 -4q-2 -67 -30 -105.5t-83 -38.5q-25 0 -44 11t-34.5 26t-29 26t-28.5 11q-35 0 -41 -67zM158 141q0 -33 20 -48t51 -15q30 0 54.5 14.5t52.5 39.5v110q-100 -13 -139 -38.5t-39 -62.5z" />
<glyph unicode="&#xe4;" horiz-adv-x="516" d="M47 132q0 79 69 122.5t220 59.5q-1 39 -20.5 67.5t-69.5 28.5q-36 0 -70.5 -14t-67.5 -34l-42 77q41 26 92.5 45t109.5 19q92 0 137.5 -54.5t45.5 -157.5v-291h-95l-8 54h-4q-33 -28 -70.5 -47t-81.5 -19q-64 0 -104.5 40t-40.5 104zM108 639q0 26 17.5 43.5t43.5 17.5 q27 0 44 -17.5t17 -43.5q0 -25 -17 -43t-44 -18q-26 0 -43.5 18t-17.5 43zM158 141q0 -33 20 -48t51 -15q30 0 54.5 14.5t52.5 39.5v110q-100 -13 -139 -38.5t-39 -62.5zM314 639q0 26 17 43.5t44 17.5q26 0 43.5 -17.5t17.5 -43.5q0 -25 -17.5 -43t-43.5 -18q-27 0 -44 18 t-17 43z" />
<glyph unicode="&#xe5;" horiz-adv-x="516" d="M47 132q0 79 69 122.5t220 59.5q-1 39 -20.5 67.5t-69.5 28.5q-36 0 -70.5 -14t-67.5 -34l-42 77q41 26 92.5 45t109.5 19q92 0 137.5 -54.5t45.5 -157.5v-291h-95l-8 54h-4q-33 -28 -70.5 -47t-81.5 -19q-64 0 -104.5 40t-40.5 104zM151 660q0 44 31.5 73t89.5 29 t89.5 -29t31.5 -73q0 -43 -31.5 -72t-89.5 -29t-89.5 29t-31.5 72zM158 141q0 -33 20 -48t51 -15q30 0 54.5 14.5t52.5 39.5v110q-100 -13 -139 -38.5t-39 -62.5zM222 660q0 -25 14.5 -40t35.5 -15t35.5 15t14.5 40q0 26 -14.5 41t-35.5 15t-35.5 -15t-14.5 -41z" />
<glyph unicode="&#xe6;" horiz-adv-x="785" d="M52 132q0 79 68.5 122.5t217.5 59.5q-1 39 -19.5 67.5t-68.5 28.5q-35 0 -69.5 -14t-66.5 -34l-42 77q41 26 90 45t103 19q50 0 85 -24t54 -65q30 42 68 65.5t85 23.5q63 0 105.5 -30t64 -83t21.5 -122q0 -34 -5 -54h-300q6 -64 44 -99t91 -35q32 0 58 10.5t53 27.5 l41 -77q-35 -23 -77.5 -38t-89.5 -15q-58 0 -100 24.5t-71 59.5q-51 -43 -98.5 -63.5t-95.5 -20.5q-64 0 -105 40t-41 104zM164 141q0 -33 19.5 -48t50.5 -15q29 0 61 15.5t59 42.5q-7 17 -11 39t-5 44l-2 23q-94 -13 -133 -38t-39 -63zM443 287h206q0 59 -24 93t-72 34 q-42 0 -72.5 -33t-37.5 -94z" />
<glyph unicode="&#xe7;" horiz-adv-x="462" d="M41 245q0 82 34 139.5t90.5 88t121.5 30.5q47 0 82 -16t62 -39l-56 -75q-19 17 -39 26.5t-43 9.5q-59 0 -96.5 -45t-37.5 -119q0 -73 36.5 -118t94.5 -45q29 0 54.5 12.5t46.5 29.5l47 -76q-34 -30 -76 -45t-84 -15q-67 0 -120.5 30.5t-85 88t-31.5 138.5zM160 -183 q61 4 83.5 14.5t22.5 32.5q0 17 -16.5 28t-60.5 17l46 94h70l-29 -65q36 -9 55.5 -25.5t19.5 -47.5q0 -47 -47.5 -70.5t-133.5 -27.5z" />
<glyph unicode="&#xe8;" horiz-adv-x="507" d="M41 245q0 80 32.5 138t84.5 89t109 31q67 0 112 -29.5t68 -82t23 -121.5q0 -36 -5 -56h-312q8 -65 47 -101t98 -36q32 0 59.5 9.5t54.5 26.5l39 -72q-35 -23 -78 -38t-90 -15q-68 0 -123 30.5t-87 88t-32 138.5zM98 728l80 76l147 -174l-57 -57zM152 292h218 q0 57 -25 89.5t-75 32.5q-43 0 -76.5 -31.5t-41.5 -90.5z" />
<glyph unicode="&#xe9;" horiz-adv-x="507" d="M41 245q0 80 32.5 138t84.5 89t109 31q67 0 112 -29.5t68 -82t23 -121.5q0 -36 -5 -56h-312q8 -65 47 -101t98 -36q32 0 59.5 9.5t54.5 26.5l39 -72q-35 -23 -78 -38t-90 -15q-68 0 -123 30.5t-87 88t-32 138.5zM152 292h218q0 57 -25 89.5t-75 32.5q-43 0 -76.5 -31.5 t-41.5 -90.5zM207 630l147 174l80 -76l-170 -155z" />
<glyph unicode="&#xea;" horiz-adv-x="507" d="M41 245q0 80 32.5 138t84.5 89t109 31q67 0 112 -29.5t68 -82t23 -121.5q0 -36 -5 -56h-312q8 -65 47 -101t98 -36q32 0 59.5 9.5t54.5 26.5l39 -72q-35 -23 -78 -38t-90 -15q-68 0 -123 30.5t-87 88t-32 138.5zM97 607l111 135h116l111 -135l-45 -43l-122 103h-4 l-122 -103zM152 292h218q0 57 -25 89.5t-75 32.5q-43 0 -76.5 -31.5t-41.5 -90.5z" />
<glyph unicode="&#xeb;" horiz-adv-x="507" d="M41 245q0 80 32.5 138t84.5 89t109 31q67 0 112 -29.5t68 -82t23 -121.5q0 -36 -5 -56h-312q8 -65 47 -101t98 -36q32 0 59.5 9.5t54.5 26.5l39 -72q-35 -23 -78 -38t-90 -15q-68 0 -123 30.5t-87 88t-32 138.5zM102 639q0 26 17.5 43.5t43.5 17.5q27 0 44 -17.5 t17 -43.5q0 -25 -17 -43t-44 -18q-26 0 -43.5 18t-17.5 43zM152 292h218q0 57 -25 89.5t-75 32.5q-43 0 -76.5 -31.5t-41.5 -90.5zM308 639q0 26 17 43.5t44 17.5q26 0 43.5 -17.5t17.5 -43.5q0 -25 -17.5 -43t-43.5 -18q-27 0 -44 18t-17 43z" />
<glyph unicode="&#xec;" horiz-adv-x="262" d="M-37 728l80 76l147 -174l-57 -57zM73 0v491h115v-491h-115z" />
<glyph unicode="&#xed;" horiz-adv-x="262" d="M72 630l147 174l80 -76l-170 -155zM73 0v491h115v-491h-115z" />
<glyph unicode="&#xee;" horiz-adv-x="262" d="M-38 607l111 135h116l111 -135l-45 -43l-122 103h-4l-122 -103zM73 0v491h115v-491h-115z" />
<glyph unicode="&#xef;" horiz-adv-x="262" d="M-33 639q0 26 17.5 43.5t43.5 17.5q27 0 44 -17.5t17 -43.5q0 -25 -17 -43t-44 -18q-26 0 -43.5 18t-17.5 43zM73 0v491h115v-491h-115zM173 639q0 26 17 43.5t44 17.5q26 0 43.5 -17.5t17.5 -43.5q0 -25 -17.5 -43t-43.5 -18q-27 0 -44 18t-17 43z" />
<glyph unicode="&#xf0;" horiz-adv-x="552" d="M48 225q0 70 28 120.5t74.5 78t101.5 27.5q34 0 65.5 -12.5t54.5 -41.5q-13 50 -37.5 89.5t-58.5 72.5l-142 -72l-31 53l122 62q-22 17 -47.5 32t-53.5 30l51 71q36 -19 71 -40.5t67 -47.5l143 73l31 -54l-124 -63q59 -60 97 -143t38 -198q0 -80 -28 -142t-78.5 -97 t-120.5 -35q-59 0 -110 29t-82 82t-31 126zM154 225q0 -67 35.5 -105t84.5 -38q55 0 85 46t30 128q0 13 -0.5 25.5t-1.5 24.5q-27 34 -55.5 46t-58.5 12q-55 0 -87 -37t-32 -102z" />
<glyph unicode="&#xf1;" horiz-adv-x="560" d="M73 0v491h95l8 -66h4q33 32 72 55t89 23q79 0 115 -51t36 -144v-308h-115v293q0 61 -18 86t-59 25q-32 0 -56.5 -15.5t-55.5 -45.5v-343h-115zM122 586q2 68 30 106t83 38q25 0 44 -11t34.5 -26t29.5 -26t29 -11q18 0 27.5 18t12.5 49l74 -4q-2 -67 -30 -105.5t-83 -38.5 q-25 0 -44 11t-34.5 26t-29 26t-28.5 11q-35 0 -41 -67z" />
<glyph unicode="&#xf2;" horiz-adv-x="549" d="M41 245q0 82 33 139.5t86 88t114 30.5q62 0 115 -30.5t86 -88t33 -139.5q0 -81 -33 -138.5t-86 -88t-115 -30.5q-61 0 -114 30.5t-86 88t-33 138.5zM106 728l80 76l147 -174l-57 -57zM159 245q0 -73 30.5 -118t84.5 -45t85 45t31 118q0 74 -31 119t-85 45t-84.5 -45 t-30.5 -119z" />
<glyph unicode="&#xf3;" horiz-adv-x="549" d="M41 245q0 82 33 139.5t86 88t114 30.5q62 0 115 -30.5t86 -88t33 -139.5q0 -81 -33 -138.5t-86 -88t-115 -30.5q-61 0 -114 30.5t-86 88t-33 138.5zM159 245q0 -73 30.5 -118t84.5 -45t85 45t31 118q0 74 -31 119t-85 45t-84.5 -45t-30.5 -119zM215 630l147 174l80 -76 l-170 -155z" />
<glyph unicode="&#xf4;" horiz-adv-x="549" d="M41 245q0 82 33 139.5t86 88t114 30.5q62 0 115 -30.5t86 -88t33 -139.5q0 -81 -33 -138.5t-86 -88t-115 -30.5q-61 0 -114 30.5t-86 88t-33 138.5zM105 607l111 135h116l111 -135l-45 -43l-122 103h-4l-122 -103zM159 245q0 -73 30.5 -118t84.5 -45t85 45t31 118 q0 74 -31 119t-85 45t-84.5 -45t-30.5 -119z" />
<glyph unicode="&#xf5;" horiz-adv-x="549" d="M41 245q0 82 33 139.5t86 88t114 30.5q62 0 115 -30.5t86 -88t33 -139.5q0 -81 -33 -138.5t-86 -88t-115 -30.5q-61 0 -114 30.5t-86 88t-33 138.5zM92 586q2 68 30 106t83 38q25 0 44 -11t34.5 -26t29.5 -26t29 -11q18 0 27.5 18t12.5 49l74 -4q-2 -67 -30 -105.5 t-83 -38.5q-25 0 -44 11t-34.5 26t-29 26t-28.5 11q-35 0 -41 -67zM159 245q0 -73 30.5 -118t84.5 -45t85 45t31 118q0 74 -31 119t-85 45t-84.5 -45t-30.5 -119z" />
<glyph unicode="&#xf6;" horiz-adv-x="549" d="M41 245q0 82 33 139.5t86 88t114 30.5q62 0 115 -30.5t86 -88t33 -139.5q0 -81 -33 -138.5t-86 -88t-115 -30.5q-61 0 -114 30.5t-86 88t-33 138.5zM110 639q0 26 17.5 43.5t43.5 17.5q27 0 44 -17.5t17 -43.5q0 -25 -17 -43t-44 -18q-26 0 -43.5 18t-17.5 43zM159 245 q0 -73 30.5 -118t84.5 -45t85 45t31 118q0 74 -31 119t-85 45t-84.5 -45t-30.5 -119zM316 639q0 26 17 43.5t44 17.5q26 0 43.5 -17.5t17.5 -43.5q0 -25 -17.5 -43t-43.5 -18q-27 0 -44 18t-17 43z" />
<glyph unicode="&#xf7;" d="M34 288v84h445v-84h-445zM188 150q0 29 20 47t48 18q29 0 48.5 -18t19.5 -47t-19.5 -47.5t-48.5 -18.5q-28 0 -48 18.5t-20 47.5zM188 510q0 29 20 47t48 18q29 0 48.5 -18t19.5 -47t-19.5 -47.5t-48.5 -18.5q-28 0 -48 18.5t-20 47.5z" />
<glyph unicode="&#xf8;" horiz-adv-x="549" d="M41 245q0 82 33 139.5t86 88t114 30.5q77 0 136 -44l47 57l46 -36l-50 -62q26 -32 40.5 -75.5t14.5 -97.5q0 -81 -33 -138.5t-86 -88t-115 -30.5q-77 0 -136 44l-46 -56l-46 36l50 61q-25 32 -40 75.5t-15 96.5zM153 251q0 -52 14 -91l182 224q-31 29 -75 29 q-54 0 -87.5 -45t-33.5 -117zM199 108q30 -30 75 -30q54 0 88 44.5t34 116.5q0 53 -14 92z" />
<glyph unicode="&#xf9;" horiz-adv-x="556" d="M68 183v308h115v-293q0 -61 18 -86t58 -25q32 0 56.5 16t52.5 52v336h115v-491h-94l-9 72h-3q-32 -38 -70 -61t-88 -23q-79 0 -115 51t-36 144zM110 728l80 76l147 -174l-57 -57z" />
<glyph unicode="&#xfa;" horiz-adv-x="556" d="M68 183v308h115v-293q0 -61 18 -86t58 -25q32 0 56.5 16t52.5 52v336h115v-491h-94l-9 72h-3q-32 -38 -70 -61t-88 -23q-79 0 -115 51t-36 144zM219 630l147 174l80 -76l-170 -155z" />
<glyph unicode="&#xfb;" horiz-adv-x="556" d="M68 183v308h115v-293q0 -61 18 -86t58 -25q32 0 56.5 16t52.5 52v336h115v-491h-94l-9 72h-3q-32 -38 -70 -61t-88 -23q-79 0 -115 51t-36 144zM109 607l111 135h116l111 -135l-45 -43l-122 103h-4l-122 -103z" />
<glyph unicode="&#xfc;" horiz-adv-x="556" d="M68 183v308h115v-293q0 -61 18 -86t58 -25q32 0 56.5 16t52.5 52v336h115v-491h-94l-9 72h-3q-32 -38 -70 -61t-88 -23q-79 0 -115 51t-36 144zM114 639q0 26 17.5 43.5t43.5 17.5q27 0 44 -17.5t17 -43.5q0 -25 -17 -43t-44 -18q-26 0 -43.5 18t-17.5 43zM320 639 q0 26 17 43.5t44 17.5q26 0 43.5 -17.5t17.5 -43.5q0 -25 -17.5 -43t-43.5 -18q-27 0 -44 18t-17 43z" />
<glyph unicode="&#xfd;" horiz-adv-x="495" d="M12 491h117l85 -241q11 -32 21.5 -67.5t21.5 -70.5h4q9 34 18.5 69.5t18.5 68.5l74 241h111l-178 -513q-31 -83 -75 -131.5t-124 -48.5q-20 0 -35 3t-29 7l21 90q7 -2 16.5 -4.5t18.5 -2.5q39 0 62.5 23.5t35.5 60.5l9 31zM196 630l147 174l80 -76l-170 -155z" />
<glyph unicode="&#xfe;" horiz-adv-x="564" d="M73 -194v900h115v-182l-2 -77q29 24 64 40t72 16q95 0 147 -68t52 -182q0 -84 -30 -143.5t-77.5 -90.5t-102.5 -31q-35 0 -65.5 13t-59.5 37l2 -78v-154h-115zM188 124q27 -22 52 -31.5t47 -9.5q49 0 82 43t33 126q0 74 -25 115t-81 41q-52 0 -108 -55v-229z" />
<glyph unicode="&#xff;" horiz-adv-x="495" d="M12 491h117l85 -241q11 -32 21.5 -67.5t21.5 -70.5h4q9 34 18.5 69.5t18.5 68.5l74 241h111l-178 -513q-31 -83 -75 -131.5t-124 -48.5q-20 0 -35 3t-29 7l21 90q7 -2 16.5 -4.5t18.5 -2.5q39 0 62.5 23.5t35.5 60.5l9 31zM91 639q0 26 17.5 43.5t43.5 17.5 q27 0 44 -17.5t17 -43.5q0 -25 -17 -43t-44 -18q-26 0 -43.5 18t-17.5 43zM297 639q0 26 17 43.5t44 17.5q26 0 43.5 -17.5t17.5 -43.5q0 -25 -17.5 -43t-43.5 -18q-27 0 -44 18t-17 43z" />
<glyph unicode="&#x152;" horiz-adv-x="859" d="M49 330q0 108 41 180t114.5 108t172.5 36h421v-98h-262v-167h220v-98h-220v-193h272v-98h-437q-96 0 -168.5 37.5t-113 111t-40.5 181.5zM168 330q0 -121 57.5 -178.5t158.5 -57.5h36v466h-36q-101 0 -158.5 -54t-57.5 -176z" />
<glyph unicode="&#x153;" horiz-adv-x="830" d="M41 245q0 82 31.5 139.5t83 88t112.5 30.5q54 0 97.5 -27t70.5 -77q29 49 72 76.5t92 27.5q63 0 106.5 -30t65.5 -83t22 -122q0 -16 -1.5 -30.5t-3.5 -23.5h-303q6 -64 44 -99t92 -35q32 0 58.5 10.5t53.5 27.5l41 -77q-35 -23 -78.5 -38t-90.5 -15q-50 0 -94.5 27.5 t-73.5 76.5q-30 -51 -72.5 -77.5t-99.5 -26.5q-61 0 -112 30.5t-82 88t-31 138.5zM158 245q0 -73 30.5 -118t79.5 -45q50 0 80.5 45t30.5 118q0 74 -30.5 119t-80.5 45q-49 0 -79.5 -45t-30.5 -119zM486 287h208q0 59 -25 93t-72 34q-43 0 -73.5 -33t-37.5 -94z" />
<glyph unicode="&#x178;" horiz-adv-x="501" d="M-4 654h124l71 -167q14 -37 28 -71.5t30 -72.5h4q16 38 31 72.5t29 71.5l71 167h121l-197 -411v-243h-116v243zM84 767q0 26 16.5 43t42.5 17t43 -17t17 -43q0 -25 -17 -42t-43 -17t-42.5 17t-16.5 42zM297 767q0 26 17 43t43 17t42.5 -17t16.5 -43q0 -25 -16.5 -42 t-42.5 -17t-43 17t-17 42z" />
<glyph unicode="&#x2c6;" horiz-adv-x="549" d="M105 607l111 135h116l111 -135l-45 -43l-122 103h-4l-122 -103z" />
<glyph unicode="&#x2dc;" horiz-adv-x="549" d="M92 586q2 68 30 106t83 38q25 0 44 -11t34.5 -26t29.5 -26t29 -11q18 0 27.5 18t12.5 49l74 -4q-2 -67 -30 -105.5t-83 -38.5q-25 0 -44 11t-34.5 26t-29 26t-28.5 11q-35 0 -41 -67z" />
<glyph unicode="&#x2000;" horiz-adv-x="443" />
<glyph unicode="&#x2001;" horiz-adv-x="887" />
<glyph unicode="&#x2002;" horiz-adv-x="443" />
<glyph unicode="&#x2003;" horiz-adv-x="887" />
<glyph unicode="&#x2004;" horiz-adv-x="295" />
<glyph unicode="&#x2005;" horiz-adv-x="221" />
<glyph unicode="&#x2006;" horiz-adv-x="147" />
<glyph unicode="&#x2007;" horiz-adv-x="147" />
<glyph unicode="&#x2008;" horiz-adv-x="110" />
<glyph unicode="&#x2009;" horiz-adv-x="177" />
<glyph unicode="&#x200a;" horiz-adv-x="49" />
<glyph unicode="&#x2010;" horiz-adv-x="322" d="M42 210v84h238v-84h-238z" />
<glyph unicode="&#x2011;" horiz-adv-x="322" d="M42 210v84h238v-84h-238z" />
<glyph unicode="&#x2012;" horiz-adv-x="322" d="M42 210v84h238v-84h-238z" />
<glyph unicode="&#x2013;" horiz-adv-x="480" d="M42 214v76h396v-76h-396z" />
<glyph unicode="&#x2014;" horiz-adv-x="800" d="M42 214v76h716v-76h-716z" />
<glyph unicode="&#x2018;" horiz-adv-x="275" d="M56 493q0 131 124 196l28 -51q-41 -24 -62 -53t-21 -73q3 1 9 1q27 0 46.5 -16.5t19.5 -45.5q0 -31 -18.5 -50t-47.5 -19q-37 0 -57.5 29.5t-20.5 81.5z" />
<glyph unicode="&#x2019;" horiz-adv-x="275" d="M67 442q41 24 62 53.5t21 72.5q-3 -1 -9 -1q-26 0 -45.5 16.5t-19.5 45.5q0 32 18.5 50.5t46.5 18.5q38 0 58.5 -29t20.5 -82q0 -131 -125 -196z" />
<glyph unicode="&#x201a;" horiz-adv-x="275" d="M67 -106q41 24 62 53.5t21 72.5q-3 -1 -9 -1q-26 0 -45.5 16.5t-19.5 45.5q0 32 18.5 50.5t46.5 18.5q38 0 58.5 -29t20.5 -82q0 -131 -125 -196z" />
<glyph unicode="&#x201c;" horiz-adv-x="482" d="M56 493q0 131 124 196l28 -51q-41 -24 -62 -53t-21 -73q3 1 9 1q27 0 46.5 -16.5t19.5 -45.5q0 -31 -18.5 -50t-47.5 -19q-37 0 -57.5 29.5t-20.5 81.5zM263 493q0 131 124 196l28 -51q-41 -24 -62 -53t-21 -73q3 1 9 1q27 0 46.5 -16.5t19.5 -45.5q0 -31 -18.5 -50 t-47.5 -19q-37 0 -57.5 29.5t-20.5 81.5z" />
<glyph unicode="&#x201d;" horiz-adv-x="482" d="M67 442q41 24 62 53.5t21 72.5q-3 -1 -9 -1q-26 0 -45.5 16.5t-19.5 45.5q0 32 18.5 50.5t46.5 18.5q38 0 58.5 -29t20.5 -82q0 -131 -125 -196zM274 442q41 24 62 53.5t21 72.5q-3 -1 -9 -1q-26 0 -45.5 16.5t-19.5 45.5q0 32 18.5 50.5t46.5 18.5q38 0 58.5 -29 t20.5 -82q0 -131 -125 -196z" />
<glyph unicode="&#x201e;" horiz-adv-x="482" d="M67 -106q41 24 62 53.5t21 72.5q-3 -1 -9 -1q-26 0 -45.5 16.5t-19.5 45.5q0 32 18.5 50.5t46.5 18.5q38 0 58.5 -29t20.5 -82q0 -131 -125 -196zM274 -106q41 24 62 53.5t21 72.5q-3 -1 -9 -1q-26 0 -45.5 16.5t-19.5 45.5q0 32 18.5 50.5t46.5 18.5q38 0 58.5 -29 t20.5 -82q0 -131 -125 -196z" />
<glyph unicode="&#x2022;" horiz-adv-x="325" d="M40 263q0 38 16.5 67t44.5 46t61 17q34 0 62 -17t44.5 -46t16.5 -67q0 -57 -36 -93.5t-87 -36.5q-50 0 -86 36.5t-36 93.5z" />
<glyph unicode="&#x2026;" horiz-adv-x="964" d="M85 66q0 34 22 56t53 22q32 0 53 -22t21 -56t-21 -56t-53 -22q-31 0 -53 22t-22 56zM418 66q0 34 22 56t53 22q32 0 53 -22t21 -56t-21 -56t-53 -22q-31 0 -53 22t-22 56zM751 66q0 34 22 56t53 22q32 0 53 -22t21 -56t-21 -56t-53 -22q-31 0 -53 22t-22 56z" />
<glyph unicode="&#x202f;" horiz-adv-x="177" />
<glyph unicode="&#x2039;" horiz-adv-x="282" d="M47 210v84l135 149l46 -37l-115 -154l115 -155l-46 -36z" />
<glyph unicode="&#x203a;" horiz-adv-x="282" d="M54 97l114 155l-114 154l45 37l136 -149v-84l-136 -149z" />
<glyph unicode="&#x205f;" horiz-adv-x="221" />
<glyph unicode="&#x20ac;" d="M22 225v56l57 4q-1 8 -1 15.5v15.5v15t1 14h-57v56l63 4q20 116 88 179.5t167 63.5q45 0 86.5 -21t69.5 -57l-65 -63q-19 23 -42 37t-52 14q-54 0 -89 -40t-47 -112h234v-61h-240q-1 -6 -1 -12v-13v-17.5t1 -16.5h200v-61h-193q14 -70 48 -108.5t85 -38.5q32 0 57.5 16 t47.5 47l65 -60q-34 -44 -78 -68.5t-99 -24.5q-91 0 -157 61t-86 176h-63z" />
<glyph unicode="&#x2122;" horiz-adv-x="660" d="M3 605v71h265v-71h-94v-241h-78v241h-93zM313 364v312h91l43 -107l25 -73h4l25 73l42 107h91v-312h-72v116l9 110h-4l-65 -179h-57l-65 179h-4l9 -110v-116h-72z" />
<glyph unicode="&#xfb01;" horiz-adv-x="578" d="M27 400v86l66 5v51q0 77 38 126.5t125 49.5q26 0 50 -5t40 -12l-22 -86q-27 12 -54 12q-62 0 -62 -83v-53h96v-91h-96v-400h-115v400h-66zM379 643q0 29 19 47t50 18t50 -18t19 -47q0 -30 -19 -48t-50 -18t-50 18t-19 48zM390 0v491h115v-491h-115z" />
<glyph unicode="&#xfb02;" horiz-adv-x="588" d="M27 400v86l66 5v51q0 77 38 126.5t125 49.5q26 0 50 -5t40 -12l-22 -86q-27 12 -54 12q-62 0 -62 -83v-53h96v-91h-96v-400h-115v400h-66zM390 126v580h115v-586q0 -21 8 -29.5t17 -8.5q4 0 7.5 0.5l10.5 1.5l15 -86q-10 -4 -25.5 -7t-35.5 -3q-61 0 -86.5 37t-25.5 101z " />
<glyph unicode="&#xfb03;" horiz-adv-x="879" d="M27 400v86l66 5v43q0 76 40.5 125t129.5 49q57 0 96 -18l-22 -86q-14 7 -28 10t-34 3q-31 0 -49 -21t-18 -62v-43h186v51q0 77 37.5 126.5t124.5 49.5q27 0 50.5 -5t39.5 -12l-22 -86q-25 12 -53 12q-62 0 -62 -83v-53h96v-91h-96v-400h-115v400h-186v-400h-115v400h-66z M680 643q0 29 19 47t50 18t50 -18t19 -47q0 -30 -19 -48t-50 -18t-50 18t-19 48zM691 0v491h115v-491h-115z" />
<glyph unicode="&#xfb04;" horiz-adv-x="888" d="M27 400v86l66 5v43q0 76 40.5 125t129.5 49q57 0 96 -18l-22 -86q-14 7 -28 10t-34 3q-31 0 -49 -21t-18 -62v-43h186v51q0 77 37.5 126.5t124.5 49.5q27 0 50.5 -5t39.5 -12l-22 -86q-25 12 -53 12q-62 0 -62 -83v-53h96v-91h-96v-400h-115v400h-186v-400h-115v400h-66z M691 126v580h115v-586q0 -21 8 -29.5t17 -8.5q4 0 7.5 0.5l10.5 1.5l15 -86q-10 -4 -25.5 -7t-35.5 -3q-61 0 -86.5 37t-25.5 101z" />
</font>
</defs>
</svg>
